<?xml version="1.0" standalone="no"?>
<!DOCTYPE svg PUBLIC "-//W3C//DTD SVG 1.1//EN" "http://www.w3.org/Graphics/SVG/1.1/DTD/svg11.dtd" >
<svg>
<metadata>
Created by FontForge 20110222 at Mon Apr 30 14:38:15 2012
 By Stefan Warting
Copyright (c) 2009 by Summitsoft Corporation. All rights reserved. Find more fonts at www.summitsoftcorp.com or www.macwareinc.com.
</metadata>
<defs>
<font id="CrevilBlack" horiz-adv-x="549" >
  <font-face 
    font-family="Crevil Black"
    font-weight="400"
    font-stretch="normal"
    units-per-em="1000"
    panose-1="2 0 5 6 0 0 0 2 0 3"
    ascent="800"
    descent="-200"
    x-height="450"
    cap-height="672"
    bbox="-125 -243 1195 915"
    underline-thickness="50"
    underline-position="-50"
    stemh="42"
    stemv="72"
    unicode-range="U+0020-2122"
  />
<missing-glyph horiz-adv-x="300" 
 />
    <glyph glyph-name=".notdef" horiz-adv-x="300" 
 />
    <glyph glyph-name="B" unicode="B" horiz-adv-x="548" 
d="M527 623c27 -30 37 -87 34 -121c0 0 -9 -81 -55 -136c10 -10 17 -22 22 -34c19 -43 16 -89 10 -125l-4 -24c-18 -101 -114 -183 -216 -183h-266l118 672h237c49 0 92 -18 120 -49zM386 229c4 20 5 44 1 64c-5 20 -13 35 -28 45c-10 6 -24 10 -46 11h-43l-54 -304h36
c56 0 109 45 119 101zM409 531c4 19 -1 53 -16 69c-15 17 -38 27 -75 27l-40 -234h44c69 0 85 126 87 138z" />
    <glyph glyph-name="C" unicode="C" horiz-adv-x="525" 
d="M291 0h-83c-101 0 -173 60 -155 161l62 350c18 101 110 161 212 161h83c101 0 172 -62 151 -183h-156c19 108 16 138 -40 138h-9c-56 0 -72 -45 -82 -101l-67 -380c-10 -56 -10 -101 46 -101h9c56 0 72 43 89 138h156c-22 -121 -115 -183 -216 -183z" />
    <glyph glyph-name="D" unicode="D" 
d="M315 0h-266l118 672h266c102 0 173 -60 156 -161l-62 -350c-18 -101 -110 -161 -212 -161zM315 627l-102 -582h35c57 0 110 45 120 101l67 380c10 56 -28 101 -84 101h-36z" />
    <glyph glyph-name="E" unicode="E" horiz-adv-x="508" 
d="M418 627c-56 0 -109 -45 -119 -101l-27 -135h250l-8 -44h-249l-52 -302h253l-7 -45h-408l89 511c18 101 110 161 212 161h225l-8 -45h-151z" />
    <glyph glyph-name="F" unicode="F" horiz-adv-x="478" 
d="M419 630c-56 0 -110 -45 -120 -101l-23 -137h249l-8 -42h-249l-62 -350h-156l86 489c19 107 111 183 215 183h82c79 0 143 -1 143 -1l-8 -41h-149z" />
    <glyph glyph-name="G" unicode="G" 
d="M558 340l-27 -157c-18 -111 -114 -182 -215 -183h-83c-101 1 -169 72 -151 183l54 306c18 111 114 182 215 182h83c101 0 169 -71 151 -182h-157c9 55 25 141 -31 141h-8c-56 0 -80 -46 -89 -101l-68 -386c-10 -56 -3 -101 53 -101h8c54 0 68 83 80 137l21 120h-47l7 41
h204z" />
    <glyph glyph-name="H" unicode="H" 
d="M460 672h157l-118 -672h-157l57 328h-135l-57 -328h-157l118 672h157l-53 -303h135z" />
    <glyph glyph-name="I" unicode="I" horiz-adv-x="257" 
d="M168 672h157l-118 -672h-157z" />
    <glyph glyph-name="J" unicode="J" horiz-adv-x="366" 
d="M278 672h156l-86 -489c-22 -125 -108 -183 -215 -183h-83l7 41c64 0 118 46 128 102z" />
    <glyph glyph-name="K" unicode="K" 
d="M606 672l-302 -305l245 -367h-172l-136 203l-36 -203h-155l118 672h156l-48 -256l261 256h69z" />
    <glyph glyph-name="L" unicode="L" horiz-adv-x="478" 
d="M167 672h157c-103 -585 -111 -631 -111 -631h251l-7 -41h-409z" />
    <glyph glyph-name="M" unicode="M" horiz-adv-x="734" 
d="M716 672h86l-118 -672h-165l68 325l-184 -325h-68l-71 327l-49 -327h-165l118 672h88l125 -583z" />
    <glyph glyph-name="N" unicode="N" horiz-adv-x="588" 
d="M499 672h157l-118 -672h-140l-121 409l-70 -409h-157l118 672h83l156 -485z" />
    <glyph glyph-name="O" unicode="O" horiz-adv-x="509" 
d="M565 488l-54 -305c-18 -111 -114 -183 -215 -183h-83c-101 0 -169 72 -151 183l54 305c17 111 114 184 215 184h83c101 0 168 -73 151 -184zM351 143l68 385c9 56 13 102 -43 102h-8c-56 0 -79 -46 -88 -102l-68 -385c-10 -56 -3 -102 53 -102h8c56 0 68 46 78 102z" />
    <glyph glyph-name="P" unicode="P" horiz-adv-x="489" 
d="M363 284h-108l-49 -284h-156l117 672h236c49 0 92 -17 120 -48s41 -76 32 -127c-6 -32 -11 -65 -16 -90c-11 -64 -60 -123 -176 -123zM262 325h23c55 0 94 47 100 82c22 111 22 125 23 130c5 28 -5 50 -19 67c-27 24 -50 25 -73 26z" />
    <glyph glyph-name="Q" unicode="Q" horiz-adv-x="592" 
d="M585 488l-54 -305c-4 -22 -10 -42 -19 -60l69 -36l-56 -84l-77 41c-38 -28 -85 -44 -132 -44h-83c-101 0 -169 72 -151 183l54 305c17 111 114 184 215 184h83c101 0 168 -73 151 -184zM291 129l49 85l40 -21l59 335c9 56 13 102 -43 102h-8c-56 0 -79 -46 -88 -102
l-68 -385c-10 -56 -3 -102 53 -102h8c37 0 55 21 66 51z" />
    <glyph glyph-name="R" unicode="R" horiz-adv-x="519" 
d="M534 400c-18 -63 -56 -107 -130 -112l116 -288h-143l-98 285h-23l-49 -285h-157l117 672h236c49 0 92 -17 120 -49c28 -31 41 -76 32 -126c-4 -24 -14 -69 -21 -97zM317 630l-53 -301h37c54 0 74 42 84 72c1 4 10 49 26 136c5 28 -2 50 -17 67c-15 16 -38 27 -77 26z" />
    <glyph glyph-name="S" unicode="S" horiz-adv-x="539" 
d="M366 360c105 -10 175 -64 157 -164l-3 -18c-19 -125 -109 -178 -214 -178h-240l7 42h170c86 0 115 80 125 136l3 18c10 56 -31 110 -80 122h-2c-101 10 -174 56 -156 157l3 17c19 106 110 180 215 180h199l-7 -41h-129c-79 -11 -116 -83 -126 -139l-3 -17
c-10 -56 25 -105 81 -115z" />
    <glyph glyph-name="T" unicode="T" horiz-adv-x="476" 
d="M57 672h519l-7 -40h-179l-111 -632h-157l111 632h-183z" />
    <glyph glyph-name="U" unicode="U" 
d="M461 672h156l-86 -489c-19 -115 -110 -183 -215 -183h-83c-105 0 -170 78 -151 183l86 489h157l-93 -529c-10 -56 -3 -101 53 -101h8c56 0 65 45 75 101z" />
    <glyph glyph-name="V" unicode="V" horiz-adv-x="561" 
d="M355 223h5l232 449h67l-347 -672h-89l-123 672h172z" />
    <glyph glyph-name="X" unicode="X" horiz-adv-x="612" 
d="M702 672l-286 -338l170 -334h-174l-104 229l-200 -229h-78l245 285l-197 387h172l139 -280l242 280h71z" />
    <glyph glyph-name="W" unicode="W" horiz-adv-x="937" 
d="M713 223h5l232 449h67l-347 -672h-89l-66 358l-185 -358h-89l-123 672h172l83 -449h5l120 231l-40 218h172z" />
    <glyph glyph-name="Z" unicode="Z" horiz-adv-x="560" 
d="M475 630h-332l7 42h497c-1 -35 -1 -42 -1 -42l-443 -588h331l-7 -42h-495v42z" />
    <glyph glyph-name="a" unicode="a" 
d="M398 451c102 0 173 -59 155 -161l-51 -290h-266c-46 0 -88 11 -118 35c-31 23 -49 64 -40 110c7 44 29 71 68 97c38 26 84 36 136 36h113l5 27c10 56 -28 102 -84 102h-124l8 44h198zM318 45h36l33 189h-39c-92 0 -110 -70 -115 -96c-11 -60 52 -93 85 -93z" />
    <glyph glyph-name="b" unicode="b" 
d="M397 454c102 0 171 -82 153 -185l-18 -106c-19 -102 -112 -163 -214 -163h-269l118 672h158l-39 -218h111zM399 306c9 58 -28 103 -84 103h-37l-62 -364h34c56 0 111 46 121 102z" />
    <glyph glyph-name="c" unicode="c" horiz-adv-x="465" 
d="M436 0h-202c-101 0 -172 59 -154 160l23 130c18 101 109 160 210 160h202l-8 -44h-127c-55 0 -109 -46 -119 -102l-28 -159c-10 -55 28 -101 83 -101h127z" />
    <glyph glyph-name="d" unicode="d" 
d="M459 671h156l-116 -671h-267c-102 0 -173 60 -155 161l22 128c18 101 111 161 212 161h110zM349 45l64 360h-36c-56 0 -109 -45 -119 -102l-28 -157c-10 -56 28 -101 84 -101h35z" />
    <glyph glyph-name="e" unicode="e" 
d="M463 0h-228c-102 0 -173 60 -155 161l24 136c19 110 154 154 208 154h85c46 0 87 -11 118 -35c31 -23 49 -63 40 -110c-7 -43 -29 -71 -68 -97c-38 -26 -84 -36 -136 -36h-110c-16 -91 4 -128 76 -128h154zM247 225h39c41 0 68 9 83 19c14 10 25 36 30 62
c15 85 -14 100 -47 100h-11c-50 0 -74 -70 -79 -94z" />
    <glyph glyph-name="f" unicode="f" horiz-adv-x="336" 
d="M395 452l-7 -42h-110l-72 -410h-156l86 488c18 105 110 184 215 184h83l-7 -41h-8c-67 0 -118 -87 -127 -143l-7 -36h110z" />
    <glyph glyph-name="g" unicode="g" horiz-adv-x="536" 
d="M312 450h253l-87 -494c-19 -105 -111 -183 -216 -183h-164l8 42h89c56 0 109 45 119 101l15 84h-96c-105 0 -169 78 -151 183l15 84c18 105 110 183 215 183zM232 143c-10 -56 27 -99 83 -99h21l65 365h-21c-56 -1 -109 -46 -119 -102z" />
    <glyph glyph-name="h" unicode="h" 
d="M499 0h-157l53 306c10 56 -26 103 -82 104h-34l-72 -410h-157l118 672h157l-39 -221h113c103 0 166 -74 147 -179z" />
    <glyph glyph-name="i" unicode="i" horiz-adv-x="259" 
d="M129 450h157l-79 -450h-157zM167 669h157l-16 -91h-157z" />
    <glyph glyph-name="j" unicode="j" horiz-adv-x="233" 
d="M105 450h157l-90 -510c-19 -110 -109 -183 -214 -183h-83l7 42h8c56 0 108 45 118 101zM143 671h157l-16 -87h-157z" />
    <glyph glyph-name="k" unicode="k" horiz-adv-x="473" 
d="M303 245l180 -245h-156l-107 157l-24 -157h-146l118 672h156l-75 -372l187 152h100z" />
    <glyph glyph-name="l" unicode="l" horiz-adv-x="394" 
d="M168 672h157l-63 -360l-31 -172c-10 -56 28 -98 84 -98h66l-7 -42h-141c-104 0 -171 71 -152 180l24 132z" />
    <glyph glyph-name="m" unicode="m" horiz-adv-x="804" 
d="M597 0l68 387c4 19 -10 21 -10 21h-39c-56 0 -73 -48 -83 -104l-53 -304h-156l53 304c10 56 11 104 -45 104h-39s-15 -2 -18 -21l-68 -387h-156l68 388c11 68 91 62 91 62h129c57 0 103 -27 130 -68c40 41 97 68 154 68h128s83 6 70 -62l-68 -388h-156z" />
    <glyph glyph-name="n" unicode="n" 
d="M499 0h-155l53 304c9 56 -28 101 -84 102h-38l-71 -406h-154l79 450h271c101 0 164 -79 146 -180z" />
    <glyph glyph-name="o" unicode="o" 
d="M546 267l-15 -84c-18 -101 -114 -183 -215 -183h-83c-101 0 -169 82 -151 183l15 84c18 102 114 183 215 183h83c101 0 169 -81 151 -183zM368 143l29 164c10 56 12 102 -44 102h-13c-56 0 -74 -46 -84 -102l-29 -164c-10 -56 -8 -101 48 -101h13c56 0 70 45 80 101z" />
    <glyph glyph-name="p" unicode="p" horiz-adv-x="548" 
d="M312 450h83c101 0 168 -82 150 -183l-16 -93c-18 -111 -105 -174 -206 -174h-117l-40 -225h-156l87 492c18 111 113 183 215 183zM260 307l-47 -265h35c55 0 109 43 119 99l29 166c10 56 2 102 -53 102h-8c-56 0 -65 -46 -75 -102z" />
    <glyph glyph-name="q" unicode="q" 
d="M312 452h83c104 0 169 -81 151 -184l-87 -493h-157l40 225h-109c-103 0 -170 78 -151 183l15 85c18 105 111 184 215 184zM349 42l47 266c10 56 17 100 -39 102h-8c-56 0 -79 -46 -89 -102l-29 -165c-10 -56 28 -101 84 -101h34z" />
    <glyph glyph-name="r" unicode="r" horiz-adv-x="340" 
d="M204 0h-154l47 269c19 106 110 181 215 181h87l-7 -40h-15c-56 0 -109 -45 -119 -101z" />
    <glyph glyph-name="s" unicode="s" horiz-adv-x="485" 
d="M300 249c98 -1 174 13 161 -100l-5 -29c-14 -91 -72 -120 -173 -120h-233l7 41h132c55 0 94 -5 103 40l13 77c4 28 -7 48 -73 49c-97 1 -143 15 -126 114l5 25c23 97 100 106 201 106h182l-7 -42h-125c-91 1 -94 -55 -94 -55l-10 -59c-2 -25 2 -41 42 -47z" />
    <glyph glyph-name="t" unicode="t" horiz-adv-x="388" 
d="M72 409l8 43h55l39 220h157l-39 -220h60l-8 -43h-60l-47 -269c-10 -56 28 -98 84 -98h66l-7 -42h-141c-104 0 -171 71 -152 180l40 229h-55z" />
    <glyph glyph-name="u" unicode="u" 
d="M422 450h156l-47 -267c-19 -115 -114 -183 -215 -183h-83c-101 0 -170 78 -151 183l47 267h156l-54 -307c-10 -56 -8 -97 48 -102h9c56 1 69 46 80 102z" />
    <glyph glyph-name="v" unicode="v" horiz-adv-x="479" 
d="M328 194h5l148 258h57l-258 -452h-79l-102 452h172z" />
    <glyph glyph-name="w" unicode="w" horiz-adv-x="745" 
d="M595 194h5l148 257h57l-258 -451h-79l-56 245l-141 -245h-79l-102 451h172l57 -257h5l72 123l-30 134h172z" />
    <glyph glyph-name="z" unicode="z" horiz-adv-x="491" 
d="M375 408h-262l7 42h419v-42l-341 -365l261 -1l-7 -42h-422v43z" />
    <glyph glyph-name="one" unicode="1" horiz-adv-x="297" 
d="M141 630l7 42h217l-118 -672h-157l111 630h-60z" />
    <glyph glyph-name="zero" unicode="0" 
d="M565 488l-54 -305c-18 -111 -114 -183 -215 -183h-83c-101 0 -169 72 -151 183l54 305c17 111 114 184 215 184h83c101 0 168 -73 151 -184zM351 143l68 385c9 56 13 102 -43 102h-8c-56 0 -79 -46 -88 -102l-68 -385c-10 -56 -3 -102 53 -102h8c56 0 68 46 78 102z" />
    <glyph glyph-name="two" unicode="2" 
d="M459 0h-409l16 94c6 36 34 164 207 165c47 1 74 12 90 22c16 12 26 26 36 53c6 17 11 38 15 62c4 27 22 129 22 130c10 56 -27 101 -83 101h-139l8 45h213c101 0 173 -60 155 -161c0 -1 -16 -88 -20 -115c-19 -108 -84 -148 -132 -165c-28 -10 -61 -16 -98 -17
c-47 -1 -67 -14 -83 -32s-27 -46 -31 -73l-12 -65h252z" />
    <glyph glyph-name="three" unicode="3" horiz-adv-x="508" 
d="M364 672c149 0 177 -78 164 -153c-4 -24 -13 -76 -27 -107c-9 -20 -23 -41 -43 -58c11 -11 19 -24 25 -37c18 -43 16 -89 9 -125l-5 -31c-18 -101 -110 -161 -212 -161h-225l8 45h151c56 0 109 45 119 101c15 80 15 145 -16 169c-9 7 -23 10 -42 11h-64l9 52h52
c25 0 42 4 52 9c11 5 16 10 22 18c12 15 23 68 28 99c5 26 24 123 -87 123h-118l8 45h192z" />
    <glyph glyph-name="four" unicode="4" horiz-adv-x="535" 
d="M446 672h157l-118 -672h-157l47 272h-95c-104 0 -169 78 -150 183l38 217h157l-45 -257c-10 -56 27 -101 83 -101h20z" />
    <glyph glyph-name="five" unicode="5" 
d="M316 0h-264l7 42h189c56 0 109 45 119 101c0 1 7 43 12 70c7 36 20 125 17 145c-5 20 -11 30 -34 41c-16 6 -40 11 -76 11h-164c3 21 5 27 8 46c7 38 15 72 27 101c11 28 27 55 53 75c16 14 35 23 55 29c27 9 54 11 86 11h225l-8 -43c-66 1 -93 1 -149 1
c-30 0 -52 -4 -65 -9c-22 -8 -35 -30 -42 -50c-5 -15 -22 -95 -26 -119h83c63 0 109 -12 140 -39s40 -67 39 -104c-10 -83 -17 -125 -17 -126c-19 -109 -107 -183 -215 -183z" />
    <glyph glyph-name="six" unicode="6" 
d="M82 183l43 243c6 38 20 102 31 131c12 28 28 55 54 75c16 14 35 23 55 29c27 9 54 11 86 11h215l-7 -40c-132 1 -85 1 -141 1c-30 0 -52 -4 -64 -9c-24 -8 -36 -29 -42 -50l-36 -175h110c101 0 174 -48 157 -149l-14 -76c-18 -104 -108 -174 -213 -174h-83
c-104 0 -170 78 -151 183zM366 134l28 156c10 56 -34 67 -90 67h-36l-39 -223c-10 -56 -10 -93 46 -93h9c56 0 72 37 82 93z" />
    <glyph glyph-name="seven" unicode="7" horiz-adv-x="523" 
d="M299 0h-154c4 9 282 548 282 563c3 25 -3 50 -25 59c-11 5 -31 9 -61 9h-180l7 41h245c72 -1 101 -10 129 -37c22 -23 35 -42 26 -87c2 -29 -248 -508 -269 -548z" />
    <glyph glyph-name="eight" unicode="8" horiz-adv-x="553" 
d="M526 316c19 -42 15 -89 10 -125l-1 -8c-18 -101 -114 -183 -215 -183h-87c-101 0 -169 82 -151 183l1 8c7 36 21 83 54 125c11 13 26 26 41 37c-14 17 -24 38 -26 58c-3 31 3 60 7 84c9 52 41 98 81 128c42 30 91 48 140 48h28c49 0 93 -18 122 -48
c31 -30 47 -76 38 -128c-4 -24 -10 -53 -24 -84c-9 -20 -24 -41 -44 -58c11 -11 21 -24 26 -37zM376 143l2 8c8 46 30 140 -17 168c-9 6 -31 14 -57 0c-19 -9 -32 -24 -44 -44s-29 -104 -34 -132c-7 -31 -11 -93 30 -102c51 -6 89 -1 120 102zM305 545
c-14 -44 -70 -169 16 -173h4c86 0 84 81 100 160c17 86 -13 94 -25 97c-20 1 -35 -3 -41 -7c-24 -16 -34 -23 -54 -77z" />
    <glyph glyph-name="nine" unicode="9" 
d="M547 489l-43 -243c-6 -38 -20 -102 -31 -131c-12 -28 -28 -55 -54 -75c-16 -14 -35 -23 -55 -29c-27 -9 -54 -11 -86 -11h-215l7 40c132 -1 86 -1 142 -1c30 0 52 4 64 9c24 8 36 29 42 50l36 175h-111c-101 0 -174 48 -157 149l14 76c18 104 108 174 213 174h83
c104 0 170 -78 151 -183zM263 538l-28 -156c-10 -56 34 -67 90 -67h36l39 223c10 56 10 93 -46 93h-9c-56 0 -72 -37 -82 -93z" />
    <glyph glyph-name="at" unicode="@" horiz-adv-x="830" 
d="M525 451c102 0 173 -59 155 -161l-42 -239c76 1 115 47 125 95l46 261c4 24 5 83 -7 101c-10 14 -29 31 -66 31h-391c-103 0 -169 -60 -192 -193l-48 -267c-15 -89 12 -149 100 -149h530l-11 -62h-530c-59 0 -104 15 -134 44c-38 36 -46 113 -33 187l40 227
c16 93 56 182 113 221s123 44 174 44h391c53 0 96 -21 122 -59c23 -33 28 -101 21 -145l-37 -209c-10 -57 -39 -113 -83 -148c-39 -32 -93 -27 -140 -30h-265c-46 0 -88 11 -118 35c-31 23 -49 64 -40 110c7 44 29 71 68 97c38 26 84 36 136 36h113l5 27
c10 56 -28 102 -84 102h-124l8 44h198zM445 45h36l33 189h-39c-92 0 -110 -70 -115 -96c-11 -60 52 -93 85 -93z" />
    <glyph glyph-name="zcaron" unicode="&#x17e;" horiz-adv-x="512" 
d="M375 408h-262l7 42h419v-42l-341 -365l261 -1l-7 -42h-422v43zM387 520h-78l-70 116l53 37l65 -105l101 109l42 -36z" />
    <glyph glyph-name="space" unicode=" " horiz-adv-x="300" 
 />
    <glyph glyph-name="exclam" unicode="!" horiz-adv-x="276" 
d="M93 166l89 506h154l-89 -506h-154zM235 99l-17 -99h-153l17 99h153z" />
    <glyph glyph-name="quotedbl" unicode="&#x22;" horiz-adv-x="288" 
d="M149 509l30 168h60l-30 -168h-60zM257 509l30 168h60l-30 -168h-60z" />
    <glyph glyph-name="numbersign" unicode="#" horiz-adv-x="588" 
d="M618 459l-10 -60h-118l-47 -78h106l-10 -60h-131l-77 -134l-52 23l64 111h-91l-70 -120l-52 23l57 97h-91l10 60h116l47 78h-106l10 60h131l70 118l52 -23l-57 -95h91l64 109l52 -23l-51 -86h93zM378 321l47 78h-91l-47 -78h91z" />
    <glyph glyph-name="percent" unicode="%" horiz-adv-x="680" 
d="M616 677l50 -40l-474 -637l-57 33l408 555c-25 -6 -49 -9 -72 -9c-25 0 -49 3 -70 7c5 -17 6 -35 2 -55c-6 -36 -26 -69 -54 -93s-63 -39 -99 -39s-67 15 -85 39c-20 24 -28 57 -22 93s26 69 55 93c27 24 62 39 98 39s75 -18 91 -21c27 -7 58 -13 92 -13
c36 0 100 29 137 48zM634 240c20 -24 28 -57 21 -93c-6 -36 -26 -69 -54 -93c-27 -24 -63 -39 -99 -39s-66 15 -85 39c-20 24 -28 57 -22 93c7 36 27 69 55 93c27 24 63 39 99 39s66 -15 85 -39zM560 103c13 11 22 27 25 44c4 18 -1 33 -10 44c-9 12 -23 18 -39 18
s-32 -6 -45 -18c-13 -11 -22 -26 -26 -44c-3 -17 2 -33 11 -44s22 -18 38 -18s33 7 46 18zM307 487c13 11 23 27 26 44c3 18 -1 33 -10 44c-9 12 -23 18 -39 18s-32 -6 -45 -18c-13 -11 -23 -26 -26 -44c-3 -17 1 -33 10 -44s23 -18 39 -18s32 7 45 18z" />
    <glyph glyph-name="ampersand" unicode="&#x26;" horiz-adv-x="593" 
d="M565 61l-100 -62c-11 15 -31 46 -37 55c-43 -29 -73 -39 -114 -49c-25 -6 -47 -4 -69 -5c-28 0 -55 5 -77 14c-21 9 -41 23 -55 40c-29 33 -40 80 -31 130c7 38 25 78 55 116c29 36 53 62 103 92c-21 39 -43 88 -35 133c5 29 12 53 32 78c52 66 148 79 222 70l-14 -116
c-230 79 -134 -79 -79 -173c20 -33 43 -70 65 -108c15 -25 35 -59 46 -79c7 8 42 47 47 56l68 -28c-14 -24 -62 -72 -78 -91c16 -24 39 -55 51 -73zM308 77c37 0 54 4 88 33c-41 68 -90 151 -126 209c-2 -1 -9 -5 -25 -21c-72 -72 -30 -218 63 -221z" />
    <glyph glyph-name="dollar" unicode="$" horiz-adv-x="539" 
d="M405 740h88l-21 -68h78l-7 -41h-83l-82 -273c98 -13 162 -66 145 -162l-3 -18c-19 -125 -109 -178 -214 -178h-35l-16 -54l-93 1l16 53h-112l7 42h118l85 277c-94 13 -160 59 -143 156l3 17c19 106 110 180 215 180h33zM371 196c5 28 -3 55 -18 77l-67 -223
c53 21 74 82 82 128zM285 475c-5 -28 1 -55 16 -75l65 214c-47 -27 -71 -79 -78 -122z" />
    <glyph glyph-name="quotesingle" unicode="'" horiz-adv-x="180" 
d="M148 501l31 177h60l-31 -177h-60z" />
    <glyph glyph-name="parenleft" unicode="(" horiz-adv-x="370" 
d="M165 -194c-18 16 -34 35 -45 61c-23 52 -34 122 -34 203c-1 54 5 113 16 175c14 81 36 157 64 223c28 67 61 124 97 167c25 28 51 54 83 65c58 20 111 13 129 13l-5 -30c-13 -1 -24 -5 -36 -13c-14 -9 -30 -24 -45 -45c-63 -96 -121 -261 -142 -380
c-14 -76 -24 -187 -21 -248c4 -60 16 -110 33 -143c11 -22 24 -36 36 -42c8 -4 13 -5 20 -5l-5 -30c-50 -8 -100 -3 -145 29z" />
    <glyph glyph-name="parenright" unicode=")" horiz-adv-x="370" 
d="M290 683c18 -16 34 -35 45 -61c23 -52 34 -122 34 -203c1 -54 -5 -113 -16 -175c-14 -81 -36 -157 -64 -223c-28 -67 -61 -124 -97 -167c-25 -28 -51 -54 -83 -65c-58 -20 -111 -13 -129 -13l5 30c13 1 24 5 36 13c14 9 30 24 45 45c63 96 121 261 142 380
c14 76 24 187 21 248c-4 60 -16 110 -33 143c-11 22 -24 36 -36 42c-8 4 -13 5 -20 5l5 30c50 8 100 3 145 -29z" />
    <glyph glyph-name="asterisk" unicode="*" horiz-adv-x="365" 
d="M390 490l-46 -47l-44 43l-10 -60h-60l10 60l-65 -44l-29 47l87 60l-64 59l46 47l47 -44l11 61h60l-11 -61l60 43l30 -47l-83 -58z" />
    <glyph glyph-name="plus" unicode="+" horiz-adv-x="510" 
d="M525 373l-10 -60h-174l-34 -190h-60l34 190h-176l10 60h176l32 182h60l-32 -182h174z" />
    <glyph glyph-name="comma" unicode="," horiz-adv-x="200" 
d="M66 37l5 26c3 22 25 40 47 40s36 -18 33 -40l-27 -149h-54l13 69c3 17 -22 26 -17 54z" />
    <glyph glyph-name="hyphen" unicode="-" horiz-adv-x="406" 
d="M407 290l-11 -60h-306l11 60h306z" />
    <glyph glyph-name="period" unicode="." horiz-adv-x="199" 
d="M150 65l-3 -16l-8 -49h-79l17 99h79z" />
    <glyph glyph-name="slash" unicode="/" horiz-adv-x="507" 
d="M521 687l50 -40l-459 -647l-57 33z" />
    <glyph glyph-name="braceleft" unicode="{" horiz-adv-x="370" 
d="M132 -101c-5 79 10 179 -7 252c-5 20 -10 32 -23 43c-10 6 -14 15 -11 28v2c2 11 10 20 22 26c20 12 37 36 48 58c46 93 79 277 168 338c39 27 120 22 144 22l-5 -27c-11 -1 -26 -5 -35 -11c-42 -28 -52 -91 -60 -123c-8 -28 -26 -95 -37 -125c-21 -58 -42 -114 -87 -159
c13 -19 19 -43 23 -67c5 -38 -3 -118 -4 -160c-2 -50 -36 -192 46 -192l-5 -27c-40 -3 -169 7 -177 122z" />
    <glyph glyph-name="bar" unicode="|" horiz-adv-x="316" 
d="M361 715l-166 -937h-155l166 937h155z" />
    <glyph glyph-name="braceright" unicode="}" horiz-adv-x="370" 
d="M322 548c5 -79 -10 -179 7 -252c5 -20 10 -32 23 -43c10 -6 14 -15 11 -28v-1c-2 -12 -10 -21 -22 -27c-20 -12 -37 -36 -48 -58c-47 -93 -80 -277 -168 -338c-39 -27 -121 -22 -145 -22l5 27c11 1 26 5 35 11c42 28 52 91 61 123c8 28 26 95 37 125c21 59 42 114 86 159
c-13 20 -19 43 -23 67c-5 38 3 118 4 160c2 50 36 192 -45 192l5 27c39 3 169 -6 177 -122z" />
    <glyph glyph-name="asciitilde" unicode="~" horiz-adv-x="631" 
d="M470 249c-48 0 -86 23 -118 50c-27 21 -54 42 -90 42s-67 -20 -102 -50l-41 49c28 25 55 42 81 54s51 17 74 17c27 0 51 -7 72 -17c21 -11 39 -24 56 -38c24 -19 50 -37 81 -37c36 0 68 23 102 54l43 -47c-49 -44 -100 -77 -158 -77z" />
    <glyph glyph-name="Scaron" unicode="&#x160;" horiz-adv-x="539" 
d="M450 750h-78l-71 116l54 37l64 -105l101 109l42 -36zM366 360c105 -10 175 -64 157 -164l-3 -18c-19 -125 -109 -178 -214 -178h-240l7 42h170c86 0 115 80 125 136l3 18c10 56 -31 110 -80 122h-2c-101 10 -174 56 -156 157l3 17c19 106 110 180 215 180h199l-7 -41
h-129c-79 -11 -116 -83 -126 -139l-3 -17c-10 -56 25 -105 81 -115z" />
    <glyph glyph-name="exclamdown" unicode="&#xa1;" horiz-adv-x="280" 
d="M28 -200l90 507h155l-90 -507h-155zM300 473l-18 -99h-154l18 99h154z" />
    <glyph glyph-name="sterling" unicode="&#xa3;" horiz-adv-x="607" 
d="M94 353l8 43h82l50 276h157l-50 -276h126l-8 -43h-126l-36 -213c-10 -56 28 -98 84 -98h183l-7 -42h-258c-104 0 -171 71 -152 180l29 173h-82z" />
    <glyph glyph-name="AE" unicode="&#xc6;" horiz-adv-x="875" 
d="M138 511c17 101 110 161 211 161h266l-4 -24c32 15 68 24 107 24h149l-8 -44h-149c-56 0 -110 -46 -120 -102l-23 -136h248l-8 -44h-248l-54 -301h251l-7 -45h-409l48 266h-136l-48 -266h-157zM396 310l55 317h-35c-56 0 -109 -45 -119 -101l-37 -216h136z" />
    <glyph glyph-name="quoteleft" unicode="&#x2018;" horiz-adv-x="200" 
d="M240 571l-2 -11c-4 -22 -25 -40 -47 -40s-37 18 -33 40l20 112h54l-6 -32c-3 -17 22 -26 17 -54z" />
    <glyph glyph-name="quoteright" unicode="&#x2019;" horiz-adv-x="200" 
d="M169 621l2 11c4 22 25 40 47 40s37 -18 33 -40l-19 -110h-54l5 30c3 17 -22 26 -17 54z" />
    <glyph glyph-name="quotedblleft" unicode="&#x201c;" horiz-adv-x="338" 
d="M240 570l-2 -11c-4 -22 -25 -40 -47 -40s-37 18 -33 40l20 113h54l-6 -33c-3 -17 22 -26 17 -54zM378 570l-2 -11c-4 -22 -25 -40 -47 -40s-37 18 -33 40l20 113h54l-6 -33c-3 -17 22 -26 17 -54z" />
    <glyph glyph-name="quotedblright" unicode="&#x201d;" horiz-adv-x="328" 
d="M169 621l2 11c4 22 25 40 47 40s37 -18 33 -40l-20 -112h-54l6 32c3 17 -22 26 -17 54zM297 621l2 11c4 22 25 40 47 40s37 -18 33 -40l-19 -108h-54l5 28c3 17 -22 26 -17 54z" />
    <glyph glyph-name="questiondown" unicode="&#xbf;" horiz-adv-x="495" 
d="M264 326h150c-3 -18 -16 -74 -25 -90c-23 -44 -73 -78 -110 -109c-58 -47 -97 -91 -110 -162c-15 -85 12 -125 57 -125c72 0 76 75 91 160h147c-22 -144 -134 -201 -254 -201s-203 78 -181 201c6 35 23 67 49 94c25 27 53 49 79 70c38 30 68 61 90 101c6 12 15 47 17 61z
M444 473l-14 -77h-154l14 77h154z" />
    <glyph glyph-name="Agrave" unicode="&#xc0;" 
d="M141 511c18 101 110 161 212 161h265l-116 -672h-156l44 266h-137l-46 -266h-156zM398 311l57 316h-36c-56 0 -109 -45 -119 -101l-39 -215h137zM420 739l-73 121l54 36l73 -121z" />
    <glyph glyph-name="Aacute" unicode="&#xc1;" 
d="M141 511c18 101 110 161 212 161h265l-116 -672h-156l44 266h-137l-46 -266h-156zM398 311l57 316h-36c-56 0 -109 -45 -119 -101l-39 -215h137zM347 775l73 121l54 -36l-73 -121z" />
    <glyph glyph-name="Acircumflex" unicode="&#xc2;" 
d="M390 906h78l70 -121l-54 -36l-63 109l-102 -105l-40 37zM141 511c18 101 110 161 212 161h265l-116 -672h-156l44 266h-137l-46 -266h-156zM398 311l57 316h-36c-56 0 -109 -45 -119 -101l-39 -215h137z" />
    <glyph glyph-name="Atilde" unicode="&#xc3;" 
d="M312 745l-32 43c32 39 61 56 88 60s46 -5 66 -18c18 -10 35 -20 51 -18c13 2 31 12 52 39l32 -42c-33 -39 -61 -56 -86 -60c-31 -4 -53 10 -76 24c-15 9 -27 15 -41 13c-14 -3 -31 -14 -54 -41zM141 511c18 101 110 161 212 161h265l-116 -672h-156l44 266h-137l-46 -266
h-156zM398 311l57 316h-36c-56 0 -109 -45 -119 -101l-39 -215h137z" />
    <glyph glyph-name="Adieresis" unicode="&#xc4;" 
d="M284 846h82l-16 -91h-82zM471 846h82l-16 -91h-82zM141 511c18 101 110 161 212 161h265l-116 -672h-156l44 266h-137l-46 -266h-156zM398 311l57 316h-36c-56 0 -109 -45 -119 -101l-39 -215h137z" />
    <glyph glyph-name="Aring" unicode="&#xc5;" 
d="M141 511c18 101 110 161 212 161h31c-56 7 -88 48 -78 106c12 65 67 108 127 108s99 -48 89 -108c-10 -53 -53 -99 -102 -106h198l-116 -672h-156l44 266h-137l-46 -266h-156zM398 311l57 316h-36c-56 0 -109 -45 -119 -101l-39 -215h137zM361 779c-5 -30 15 -53 45 -53
s58 23 63 53s-14 54 -44 54s-59 -24 -64 -54z" />
    <glyph glyph-name="Ccedilla" unicode="&#xc7;" 
d="M316 0h-9c30 -7 48 -36 43 -69l-6 -35c-7 -41 -46 -71 -85 -71h-80l8 42h26c19 0 36 16 39 33l5 30c3 18 -8 32 -27 32h-26l7 39c-89 8 -150 66 -133 160l62 350c18 101 110 161 212 161h83c101 0 172 -62 151 -183h-156c19 108 16 138 -40 138h-9
c-56 0 -72 -45 -82 -101l-67 -380c-10 -56 -10 -101 46 -101h9c56 0 72 43 89 138h156c-22 -121 -115 -183 -216 -183z" />
    <glyph glyph-name="Egrave" unicode="&#xc8;" horiz-adv-x="508" 
d="M418 627c-56 0 -109 -45 -119 -101l-27 -135h250l-8 -44h-249l-52 -302h253l-7 -45h-408l89 511c18 101 110 161 212 161h225l-8 -45h-151zM420 739l-73 121l54 36l73 -121z" />
    <glyph glyph-name="Eacute" unicode="&#xc9;" horiz-adv-x="508" 
d="M418 627c-56 0 -109 -45 -119 -101l-27 -135h250l-8 -44h-249l-52 -302h253l-7 -45h-408l89 511c18 101 110 161 212 161h225l-8 -45h-151zM501 860l-115 -121l-42 36l115 121z" />
    <glyph glyph-name="Ecircumflex" unicode="&#xca;" horiz-adv-x="508" 
d="M418 627c-56 0 -109 -45 -119 -101l-27 -135h250l-8 -44h-249l-52 -302h253l-7 -45h-408l89 511c18 101 110 161 212 161h225l-8 -45h-151zM387 906h78l70 -121l-54 -36l-63 109l-102 -105l-40 37z" />
    <glyph glyph-name="Edieresis" unicode="&#xcb;" horiz-adv-x="508" 
d="M418 627c-56 0 -109 -45 -119 -101l-27 -135h250l-8 -44h-249l-52 -302h253l-7 -45h-408l89 511c18 101 110 161 212 161h225l-8 -45h-151zM272 841h82l-16 -91h-82zM459 841h82l-16 -91h-82z" />
    <glyph glyph-name="Igrave" unicode="&#xcc;" horiz-adv-x="210" 
d="M168 672h157l-118 -672h-157zM243 749l-73 121l54 36l73 -121z" />
    <glyph glyph-name="Iacute" unicode="&#xcd;" horiz-adv-x="209" 
d="M168 672h156l-118 -672h-156zM352 870l-115 -121l-42 36l115 121z" />
    <glyph glyph-name="Icircumflex" unicode="&#xce;" horiz-adv-x="210" 
d="M168 672h157l-118 -672h-157zM240 902h78l69 -121l-54 -36l-63 109l-101 -105l-41 37z" />
    <glyph glyph-name="Idieresis" unicode="&#xcf;" horiz-adv-x="210" 
d="M168 672h157l-118 -672h-157zM328 843h82l-16 -92h-82zM141 843h82l-16 -92h-82z" />
    <glyph glyph-name="Eth" unicode="&#xd0;" horiz-adv-x="567" 
d="M334 0h-266l56 322h-48l8 42h48l54 308h266c101 0 171 -62 151 -183l-54 -306c-23 -121 -114 -183 -215 -183zM378 363l-8 -42h-90l-49 -279h35c56 0 109 45 119 101l44 253c32 182 28 234 -59 234h-35l-47 -267h90z" />
    <glyph glyph-name="Ntilde" unicode="&#xd1;" horiz-adv-x="588" 
d="M499 672h157l-118 -672h-140l-121 409l-70 -409h-157l118 672h82v-1l1 1l156 -485zM329 749l-32 43c32 39 61 56 88 60c26 4 46 -5 66 -18c18 -10 35 -20 50 -18c14 2 31 12 52 39l33 -42c-33 -39 -61 -56 -87 -60c-30 -4 -52 10 -75 24c-15 9 -27 15 -41 13
c-15 -3 -32 -14 -54 -41z" />
    <glyph glyph-name="Ograve" unicode="&#xd2;" 
d="M565 488l-54 -305c-18 -111 -114 -183 -215 -183h-83c-101 0 -169 72 -151 183l54 305c17 111 114 184 215 184h83c101 0 168 -73 151 -184zM351 143l68 385c9 56 13 102 -43 102h-8c-56 0 -79 -46 -88 -102l-68 -385c-10 -56 -3 -102 53 -102h8c56 0 68 46 78 102z
M419 749l-73 121l54 36l73 -121z" />
    <glyph glyph-name="Oacute" unicode="&#xd3;" 
d="M565 488l-54 -305c-18 -111 -114 -183 -215 -183h-83c-101 0 -169 72 -151 183l54 305c17 111 114 184 215 184h83c101 0 168 -73 151 -184zM351 143l68 385c9 56 13 102 -43 102h-8c-56 0 -79 -46 -88 -102l-68 -385c-10 -56 -3 -102 53 -102h8c56 0 68 46 78 102z
M510 870l-115 -121l-42 36l115 121z" />
    <glyph glyph-name="Ocircumflex" unicode="&#xd4;" 
d="M565 488l-54 -305c-18 -111 -114 -183 -215 -183h-83c-101 0 -169 72 -151 183l54 305c17 111 114 184 215 184h83c101 0 168 -73 151 -184zM351 143l68 385c9 56 13 102 -43 102h-8c-56 0 -79 -46 -88 -102l-68 -385c-10 -56 -3 -102 53 -102h8c56 0 68 46 78 102z
M390 906h78l70 -121l-54 -36l-63 109l-102 -105l-40 37z" />
    <glyph glyph-name="Otilde" unicode="&#xd5;" 
d="M565 488l-54 -305c-18 -111 -114 -183 -215 -183h-83c-101 0 -169 72 -151 183l54 305c17 111 114 184 215 184h83c101 0 168 -73 151 -184zM351 143l68 385c9 56 13 102 -43 102h-8c-56 0 -79 -46 -88 -102l-68 -385c-10 -56 -3 -102 53 -102h8c56 0 68 46 78 102z
M299 749l-32 43c32 39 61 56 88 60c26 4 46 -5 66 -18c18 -10 35 -20 50 -18c14 2 31 12 52 39l33 -42c-33 -39 -61 -56 -87 -60c-30 -4 -52 10 -75 24c-15 9 -27 15 -41 13c-15 -3 -32 -14 -54 -41z" />
    <glyph glyph-name="Odieresis" unicode="&#xd6;" 
d="M565 488l-54 -305c-18 -111 -114 -183 -215 -183h-83c-101 0 -169 72 -151 183l54 305c17 111 114 184 215 184h83c101 0 168 -73 151 -184zM351 143l68 385c9 56 13 102 -43 102h-8c-56 0 -79 -46 -88 -102l-68 -385c-10 -56 -3 -102 53 -102h8c56 0 68 46 78 102z
M287 841h82l-16 -91h-82zM474 841h82l-16 -91h-82z" />
    <glyph glyph-name="multiply" unicode="&#xd7;" 
d="M623 554l-246 -230l156 -222h-100l-118 164l-176 -164h-102l240 224l-156 228h98l121 -173l190 173h93z" />
    <glyph glyph-name="Oslash" unicode="&#xd8;" horiz-adv-x="636" 
d="M12 104l107 103l50 281c17 111 114 184 215 184h83c40 0 75 -12 101 -33l43 41l105 -121l-103 -99l-49 -277c-18 -111 -114 -183 -215 -183h-83c-39 0 -73 11 -99 30l-42 -40zM404 143l24 139l-166 -160c-5 -46 7 -81 56 -81h8c56 0 68 46 78 102zM333 528l-25 -140
l167 161c6 46 2 81 -46 81h-8c-56 0 -79 -46 -88 -102z" />
    <glyph glyph-name="Ugrave" unicode="&#xd9;" 
d="M461 672h156l-86 -489c-19 -115 -110 -183 -215 -183h-83c-105 0 -170 78 -151 183l86 489h157l-93 -529c-10 -56 -3 -101 53 -101h8c56 0 65 45 75 101zM404 751l-73 121l55 36l72 -121z" />
    <glyph glyph-name="Uacute" unicode="&#xda;" 
d="M461 672h156l-86 -489c-19 -115 -110 -183 -215 -183h-83c-105 0 -170 78 -151 183l86 489h157l-93 -529c-10 -56 -3 -101 53 -101h8c56 0 65 45 75 101zM373 782l116 121l41 -36l-115 -121z" />
    <glyph glyph-name="Ucircumflex" unicode="&#xdb;" 
d="M461 672h156l-86 -489c-19 -115 -110 -183 -215 -183h-83c-105 0 -170 78 -151 183l86 489h157l-93 -529c-10 -56 -3 -101 53 -101h8c56 0 65 45 75 101zM392 902h78l69 -121l-54 -36l-63 109l-101 -105l-41 37z" />
    <glyph glyph-name="Udieresis" unicode="&#xdc;" 
d="M461 672h156l-86 -489c-19 -115 -110 -183 -215 -183h-83c-105 0 -170 78 -151 183l86 489h157l-93 -529c-10 -56 -3 -101 53 -101h8c56 0 65 45 75 101zM293 841h82l-16 -91h-82zM480 841h82l-16 -91h-82z" />
    <glyph glyph-name="germandbls" unicode="&#xdf;" horiz-adv-x="548" 
d="M314 45c56 -9 64 44 67 102l4 86c1 20 2 44 -2 64c-5 20 -13 35 -28 44c-10 7 -38 10 -58 11l9 41c31 1 58 8 65 12c7 5 8 7 13 20c4 9 17 82 19 96l3 16c5 28 0 52 -17 67c-38 33 -85 -16 -95 -75l-93 -529h-151l86 489c19 111 114 183 215 183h53c49 0 91 -17 119 -49
c29 -31 42 -76 33 -126l-3 -16c-4 -17 -7 -36 -15 -56c-6 -17 -17 -36 -35 -52c9 -11 17 -23 22 -35c19 -42 16 -89 10 -125l-5 -30c-25 -151 -104 -183 -205 -183c-70 0 -78 48 -60 135l21 72l54 -1s-90 -126 -26 -161z" />
    <glyph glyph-name="agrave" unicode="&#xe0;" 
d="M398 451c102 0 173 -59 155 -161l-51 -290h-266c-46 0 -88 11 -118 35c-31 23 -49 64 -40 110c7 44 29 71 68 97c38 26 84 36 136 36h113l5 27c10 56 -28 102 -84 102h-124l8 44h198zM318 45h36l33 189h-39c-92 0 -110 -70 -115 -96c-11 -60 52 -93 85 -93zM353 668
l73 -121l-54 -36l-73 121z" />
    <glyph glyph-name="Yacute" unicode="&#xdd;" 
d="M471 672h155l-33 -189c-18 -101 -82 -184 -183 -184l-52 -299h-148l52 299c-101 5 -136 83 -118 184l33 189h152l-33 -189c-12 -56 -20 -129 36 -142c67 -2 87 43 106 142zM524 879l-115 -121l-41 36l115 121z" />
    <glyph glyph-name="onequarter" unicode="&#xbc;" horiz-adv-x="1095" 
d="M646 673h154l-475 -673h-168zM962 405h143l-71 -405h-143l24 139c-43 -3 -87 -5 -130 0c-60 8 -101 49 -91 110l28 156h143l-29 -166c-7 -38 45 -69 86 -61zM242 268h-146l71 404h146z" />
    <glyph glyph-name="onehalf" unicode="&#xbd;" horiz-adv-x="983" 
d="M646 673h154l-475 -673h-168zM912 29l-5 -29h-269l10 57c3 21 12 48 32 71c20 24 41 29 61 31h37c35 1 52 15 62 45c4 10 8 32 11 47c3 16 9 51 9 52c6 33 -16 60 -50 60h-73l7 40h158c61 0 97 -57 90 -120c-11 -65 -15 -80 -27 -102c-31 -49 -69 -49 -108 -52h-27
c-56 -1 -53 -47 -61 -92l-1 -8h144zM242 268h-146l71 404h146z" />
    <glyph glyph-name="aacute" unicode="&#xe1;" 
d="M398 451c102 0 173 -59 155 -161l-51 -290h-266c-46 0 -88 11 -118 35c-31 23 -49 64 -40 110c7 44 29 71 68 97c38 26 84 36 136 36h113l5 27c10 56 -28 102 -84 102h-124l8 44h198zM318 45h36l33 189h-39c-92 0 -110 -70 -115 -96c-11 -60 52 -93 85 -93zM490 633
l-115 -121l-42 36l115 121z" />
    <glyph glyph-name="acircumflex" unicode="&#xe2;" 
d="M398 451c102 0 173 -59 155 -161l-51 -290h-266c-46 0 -88 11 -118 35c-31 23 -49 64 -40 110c7 44 29 71 68 97c38 26 84 36 136 36h113l5 27c10 56 -28 102 -84 102h-124l8 44h198zM318 45h36l33 189h-39c-92 0 -110 -70 -115 -96c-11 -60 52 -93 85 -93zM375 672h78
l70 -121l-55 -36l-62 109l-102 -105l-40 37z" />
    <glyph glyph-name="atilde" unicode="&#xe3;" 
d="M398 451c102 0 173 -59 155 -161l-51 -290h-266c-46 0 -88 11 -118 35c-31 23 -49 64 -40 110c7 44 29 71 68 97c38 26 84 36 136 36h113l5 27c10 56 -28 102 -84 102h-124l8 44h198zM318 45h36l33 189h-39c-92 0 -110 -70 -115 -96c-11 -60 52 -93 85 -93zM276 565
l-31 43c32 39 61 56 87 60c27 4 46 -5 66 -18c18 -10 36 -20 51 -18c13 2 31 12 52 39l32 -42c-32 -39 -60 -56 -86 -60c-31 -4 -52 10 -76 24c-14 9 -26 15 -41 13c-14 -3 -31 -14 -54 -41z" />
    <glyph glyph-name="adieresis" unicode="&#xe4;" 
d="M398 451c102 0 173 -59 155 -161l-51 -290h-266c-46 0 -88 11 -118 35c-31 23 -49 64 -40 110c7 44 29 71 68 97c38 26 84 36 136 36h113l5 27c10 56 -28 102 -84 102h-124l8 44h198zM318 45h36l33 189h-39c-92 0 -110 -70 -115 -96c-11 -60 52 -93 85 -93zM259 672h82
l-16 -91h-82zM446 672h82l-16 -91h-82z" />
    <glyph glyph-name="aring" unicode="&#xe5;" 
d="M398 451c102 0 173 -59 155 -161l-51 -290h-266c-46 0 -88 11 -118 35c-31 23 -49 64 -40 110c7 44 29 71 68 97c38 26 84 36 136 36h113l5 27c10 56 -28 102 -84 102h-124l8 44h198zM289 577c9 52 58 93 108 93c52 0 85 -41 76 -93c-9 -50 -57 -91 -109 -91
c-50 0 -84 41 -75 91zM318 45h36l33 189h-39c-92 0 -110 -70 -115 -96c-11 -60 52 -93 85 -93zM349 581c-4 -20 7 -34 26 -34c20 0 37 14 40 34c4 19 -8 34 -28 34c-19 0 -35 -15 -38 -34z" />
    <glyph glyph-name="ae" unicode="&#xe6;" horiz-adv-x="832" 
d="M732 0h-521c-46 0 -88 11 -118 35c-31 23 -49 64 -40 110c7 44 29 71 68 97c38 26 84 36 136 36h112l6 31c8 54 -30 98 -84 98h-124l8 44h198c41 0 77 -10 105 -28c39 19 79 28 103 28h85c46 0 87 -11 118 -35c31 -23 49 -63 40 -110c-7 -43 -29 -71 -68 -97
c-38 -26 -84 -36 -136 -36h-110c-16 -91 4 -128 76 -128h154zM293 45h36l33 189h-39c-92 0 -110 -70 -115 -96c-11 -60 52 -93 85 -93zM555 225c41 0 68 9 83 19c14 10 25 36 30 62c15 85 -14 100 -47 100h-11c-50 0 -74 -70 -79 -94l-15 -87h39z" />
    <glyph glyph-name="ccedilla" unicode="&#xe7;" horiz-adv-x="485" 
d="M433 0h-132c33 -5 55 -35 49 -70l-6 -35c-7 -41 -46 -71 -85 -71h-80l4 22h29c19 0 36 16 39 33l12 70c4 18 -8 32 -27 32h-29l4 20c-90 7 -151 65 -134 159l23 132c18 101 109 160 210 160h202l-8 -44h-127c-55 0 -109 -46 -119 -102l-28 -161c-10 -55 28 -101 83 -101
h127z" />
    <glyph glyph-name="egrave" unicode="&#xe8;" 
d="M463 0h-228c-102 0 -173 60 -155 161l24 136c19 110 154 154 208 154h85c46 0 87 -11 118 -35c31 -23 49 -63 40 -110c-7 -43 -29 -71 -68 -97c-38 -26 -84 -36 -136 -36h-110c-16 -91 4 -128 76 -128h154zM247 225h39c41 0 68 9 83 19c14 10 25 36 30 62
c15 85 -14 100 -47 100h-11c-50 0 -74 -70 -79 -94zM316 670l115 -121l-41 -36l-116 121z" />
    <glyph glyph-name="eacute" unicode="&#xe9;" 
d="M463 0h-228c-102 0 -173 60 -155 161l24 136c19 110 154 154 208 154h85c46 0 87 -11 118 -35c31 -23 49 -63 40 -110c-7 -43 -29 -71 -68 -97c-38 -26 -84 -36 -136 -36h-110c-16 -91 4 -128 76 -128h154zM247 225h39c41 0 68 9 83 19c14 10 25 36 30 62
c15 85 -14 100 -47 100h-11c-50 0 -74 -70 -79 -94zM472 634l-115 -121l-42 36l116 121z" />
    <glyph glyph-name="ecircumflex" unicode="&#xea;" 
d="M463 0h-228c-102 0 -173 60 -155 161l24 136c19 110 154 154 208 154h85c46 0 87 -11 118 -35c31 -23 49 -63 40 -110c-7 -43 -29 -71 -68 -97c-38 -26 -84 -36 -136 -36h-110c-16 -91 4 -128 76 -128h154zM247 225h39c41 0 68 9 83 19c14 10 25 36 30 62
c15 85 -14 100 -47 100h-11c-50 0 -74 -70 -79 -94zM355 672h78l70 -121l-55 -36l-62 109l-102 -105l-40 37z" />
    <glyph glyph-name="edieresis" unicode="&#xeb;" 
d="M463 0h-228c-102 0 -173 60 -155 161l24 136c19 110 154 153 208 153h85c46 0 87 -10 118 -34c31 -23 49 -63 40 -110c-7 -43 -29 -71 -68 -97c-38 -26 -84 -36 -136 -36h-110c-16 -91 4 -128 76 -128h154zM247 225h39c41 0 68 9 83 19c14 10 25 36 30 62
c15 85 -14 100 -47 100h-11c-50 0 -74 -70 -79 -94zM259 672h82l-16 -91h-82zM446 672h82l-16 -91h-82z" />
    <glyph glyph-name="igrave" unicode="&#xec;" horiz-adv-x="259" 
d="M129 451h157l-79 -451h-157zM142 670l115 -121l-41 -36l-116 121z" />
    <glyph glyph-name="iacute" unicode="&#xed;" horiz-adv-x="259" 
d="M129 450h157l-79 -450h-157zM313 634l-115 -121l-42 36l116 121z" />
    <glyph glyph-name="icircumflex" unicode="&#xee;" horiz-adv-x="259" 
d="M129 451h157l-79 -451h-157zM189 672h78l70 -121l-55 -36l-62 109l-102 -105l-40 37z" />
    <glyph glyph-name="idieresis" unicode="&#xef;" horiz-adv-x="259" 
d="M129 451h157l-79 -451h-157zM107 671h82l-16 -91h-82zM294 671h82l-16 -91h-82z" />
    <glyph glyph-name="eth" unicode="&#xf0;" horiz-adv-x="522" 
d="M330 481l108 81c-16 49 -85 51 -132 52l6 35c66 0 126 -9 173 -55l75 55l29 -39l-77 -57c19 -36 25 -80 28 -127c1 -37 -3 -79 -11 -120c-15 -88 -36 -176 -108 -240c-41 -37 -98 -62 -155 -66h-11c-58 0 -107 22 -138 57c-32 36 -48 86 -42 142l2 12
c19 111 122 203 239 210h12c55 0 101 -20 132 -53c2 15 2 31 2 43c0 35 0 72 -13 99l-92 -69zM212 203c-10 -83 -5 -168 49 -168h7c119 0 179 352 54 352h-8c-55 0 -81 -65 -102 -184z" />
    <glyph glyph-name="divide" unicode="&#xf7;" horiz-adv-x="423" 
d="M438 373l-10 -60h-323l10 60h323zM255 470l10 57h80l-15 -85h-80zM213 188l10 57h80l-15 -85h-80z" />
    <glyph glyph-name="ntilde" unicode="&#xf1;" 
d="M499 0h-155l53 305c9 56 -28 101 -84 102h-38l-71 -407h-154l79 451h271c101 0 164 -79 146 -180zM268 559l-31 43c32 39 61 56 87 60c27 4 46 -5 66 -18c18 -10 36 -20 51 -18c13 2 31 12 52 39l32 -42c-33 -39 -61 -56 -86 -60c-31 -4 -52 10 -76 24
c-14 9 -26 15 -41 13c-14 -3 -31 -14 -54 -41z" />
    <glyph glyph-name="ograve" unicode="&#xf2;" 
d="M546 269l-15 -86c-18 -101 -114 -183 -215 -183h-83c-101 0 -169 82 -151 183l15 86c18 102 114 183 215 183h83c101 0 169 -81 151 -183zM368 143l29 166c10 56 12 102 -44 102h-13c-56 0 -74 -46 -84 -102l-29 -166c-10 -56 -8 -101 48 -101h13c56 0 70 45 80 101z
M308 670l115 -121l-41 -36l-116 121z" />
    <glyph glyph-name="oacute" unicode="&#xf3;" 
d="M546 269l-15 -86c-18 -101 -114 -183 -215 -183h-83c-101 0 -169 82 -151 183l15 86c18 102 114 183 215 183h83c101 0 169 -81 151 -183zM368 143l29 166c10 56 12 102 -44 102h-13c-56 0 -74 -46 -84 -102l-29 -166c-10 -56 -8 -101 48 -101h13c56 0 70 45 80 101z
M475 628l-115 -121l-42 36l116 121z" />
    <glyph glyph-name="ocircumflex" unicode="&#xf4;" 
d="M546 269l-15 -86c-18 -101 -114 -183 -215 -183h-83c-101 0 -169 82 -151 183l15 86c18 102 114 183 215 183h83c101 0 169 -81 151 -183zM368 143l29 166c10 56 12 102 -44 102h-13c-56 0 -74 -46 -84 -102l-29 -166c-10 -56 -8 -101 48 -101h13c56 0 70 45 80 101z
M355 672h78l70 -121l-55 -36l-62 109l-102 -105l-40 37z" />
    <glyph glyph-name="otilde" unicode="&#xf5;" 
d="M546 269l-15 -86c-18 -101 -114 -183 -215 -183h-83c-101 0 -169 82 -151 183l15 86c18 102 114 183 215 183h83c101 0 169 -81 151 -183zM368 143l29 166c10 56 12 102 -44 102h-13c-56 0 -74 -46 -84 -102l-29 -166c-10 -56 -8 -101 48 -101h13c56 0 70 45 80 101z
M270 566l-31 43c32 39 61 56 87 60c27 4 47 -5 66 -18c19 -10 36 -20 51 -18c13 2 31 12 52 39l33 -42c-33 -39 -61 -56 -87 -60c-31 -4 -52 10 -76 24c-14 9 -26 15 -40 13c-15 -3 -32 -14 -55 -41z" />
    <glyph glyph-name="odieresis" unicode="&#xf6;" 
d="M546 269l-15 -86c-18 -101 -114 -183 -215 -183h-83c-101 0 -169 82 -151 183l15 86c18 102 114 183 215 183h83c101 0 169 -81 151 -183zM368 143l29 166c10 56 12 102 -44 102h-13c-56 0 -74 -46 -84 -102l-29 -166c-10 -56 -8 -101 48 -101h13c56 0 70 45 80 101z
M259 672h82l-16 -91h-82zM446 672h82l-16 -91h-82z" />
    <glyph glyph-name="oslash" unicode="&#xf8;" 
d="M524 451l53 -74l-35 -28c7 -24 9 -51 4 -80l-15 -86c-18 -101 -114 -183 -215 -183h-83c-36 0 -68 10 -93 28l-30 -24l-62 69l38 30c-8 24 -9 51 -4 80l15 86c18 102 114 183 215 183h83c36 0 68 -11 94 -29zM256 309l-15 -82l161 127c1 34 -10 57 -49 57h-13
c-56 0 -74 -46 -84 -102zM368 143l13 78l-159 -127c2 -31 15 -52 53 -52h13c56 0 70 45 80 101z" />
    <glyph glyph-name="ugrave" unicode="&#xf9;" 
d="M422 451h156l-47 -268c-19 -115 -114 -183 -215 -183h-83c-101 0 -170 78 -151 183l47 268h156l-54 -308c-10 -56 -8 -97 48 -102h9c56 1 69 46 80 102zM368 512l-73 121l54 36l73 -121z" />
    <glyph glyph-name="uacute" unicode="&#xfa;" 
d="M422 451h156l-47 -268c-19 -115 -114 -183 -215 -183h-83c-101 0 -170 78 -151 183l47 268h156l-54 -308c-10 -56 -8 -97 48 -102h9c56 1 69 46 80 102zM483 634l-115 -121l-42 36l116 121z" />
    <glyph glyph-name="ucircumflex" unicode="&#xfb;" 
d="M422 451h156l-47 -268c-19 -115 -114 -183 -215 -183h-83c-101 0 -170 78 -151 183l47 268h156l-54 -308c-10 -56 -8 -97 48 -102h9c56 1 69 46 80 102zM355 672h78l70 -121l-55 -36l-62 109l-102 -105l-40 37z" />
    <glyph glyph-name="udieresis" unicode="&#xfc;" 
d="M422 451h156l-47 -268c-19 -115 -114 -183 -215 -183h-83c-101 0 -170 78 -151 183l47 268h156l-54 -308c-10 -56 -8 -97 48 -102h9c56 1 69 46 80 102zM259 672h82l-16 -91h-82zM446 672h82l-16 -91h-82z" />
    <glyph glyph-name="Y" unicode="Y" horiz-adv-x="509" 
d="M442 672h155l-33 -189c-18 -101 -82 -184 -183 -184l-52 -299h-148l52 299c-101 5 -136 83 -118 184l33 189h152l-33 -189c-12 -56 -20 -129 36 -142c67 -2 87 43 106 142z" />
    <glyph glyph-name="y" unicode="y" horiz-adv-x="536" 
d="M129 452h157l-54 -309c-10 -56 27 -101 83 -101h21l72 410h157l-88 -498c-18 -106 -114 -183 -215 -183h-164l8 42h89c56 0 108 45 118 101l16 86h-96c-101 0 -170 78 -151 183z" />
    <glyph glyph-name="yacute" unicode="&#xfd;" horiz-adv-x="536" 
d="M129 451h157l-54 -308c-10 -56 27 -101 83 -101h21l72 409h157l-88 -497c-18 -106 -114 -183 -215 -183h-164l8 42h89c56 0 108 45 118 101l16 86h-96c-101 0 -170 78 -151 183zM484 633l-115 -121l-42 36l115 121z" />
    <glyph glyph-name="ydieresis" unicode="&#xff;" horiz-adv-x="536" 
d="M129 450h157l-54 -307c-10 -56 27 -101 83 -101h21l72 408h157l-88 -496c-18 -106 -114 -183 -215 -183h-164l8 42h89c56 0 108 45 118 101l16 86h-96c-101 0 -170 78 -151 183zM259 672h82l-16 -91h-82zM446 672h82l-16 -91h-82z" />
    <glyph glyph-name="Euro" unicode="&#x20ac;" horiz-adv-x="569" 
d="M404 293l-7 -43h-126l-19 -107c-10 -56 7 -101 63 -101c35 2 64 57 79 141h157c-18 -101 -114 -183 -215 -183h-83c-101 0 -169 82 -151 183l12 67h-50l7 43h50l11 63h-50l8 41h50l15 87c18 101 115 187 216 187h83c101 0 168 -86 150 -187h-155c10 56 23 145 -41 145
c-56 0 -79 -49 -89 -105l-22 -127h126l-8 -41h-126l-11 -63h126z" />
    <glyph glyph-name="colon" unicode=":" horiz-adv-x="206" 
d="M163 99l-17 -99h-79l17 99h79zM218 449l-18 -99h-79l18 99h79z" />
    <glyph glyph-name="semicolon" unicode=";" horiz-adv-x="203" 
d="M69 37l5 26c3 22 25 40 47 40s36 -18 33 -40l-27 -149h-54l13 69c3 17 -22 26 -17 54zM218 449l-18 -99h-79l18 99h79z" />
    <glyph glyph-name="less" unicode="&#x3c;" horiz-adv-x="332" 
d="M381 519l-219 -164l163 -165l-47 -40l-180 182l9 51l241 176z" />
    <glyph glyph-name="equal" unicode="=" horiz-adv-x="465" 
d="M467 296l-11 -60h-365l11 60h365zM493 446l-10 -60h-365l10 60h365z" />
    <glyph glyph-name="greater" unicode="&#x3e;" horiz-adv-x="332" 
d="M294 355l-161 164l47 40l179 -176l-9 -51l-244 -182l-33 40z" />
    <glyph glyph-name="question" unicode="?" horiz-adv-x="495" 
d="M309 147h-146c4 18 16 74 25 90c23 44 73 78 111 109c16 13 33 27 46 39c29 24 57 89 63 123c15 85 -19 135 -70 135c-83 0 -78 -140 -82 -175l-164 1c22 164 154 205 274 205s204 -78 182 -201c-6 -35 -24 -67 -50 -94c-24 -27 -53 -53 -80 -74c-37 -30 -69 -51 -91 -91
c-6 -12 -15 -53 -18 -67zM134 0l13 77h153l-13 -77h-153z" />
    <glyph glyph-name="Ydieresis" unicode="&#x178;" 
d="M462 672h155l-33 -189c-18 -101 -82 -184 -183 -184l-52 -299h-148l52 299c-101 5 -136 83 -118 184l33 189h152l-33 -189c-12 -56 -20 -129 36 -142c67 -2 87 43 106 142zM283 841h82l-16 -91h-82zM470 841h82l-16 -91h-82z" />
    <glyph glyph-name="x" unicode="x" horiz-adv-x="583" 
d="M633 451l-236 -225l159 -226h-172l-93 136l-153 -136h-88l211 183l-188 268h168l127 -180l196 180h69z" />
    <glyph glyph-name="threequarters" unicode="&#xbe;" horiz-adv-x="1185" 
d="M736 673h154l-475 -673h-168zM1052 405h143l-71 -405h-143l24 139h-130c-60 0 -101 49 -91 110l28 156h143l-29 -166c-7 -38 45 -69 86 -61zM394 459c11 -26 10 -54 5 -80c-10 -61 -68 -110 -149 -110h-145l6 37h85c34 0 67 31 73 65l3 17c2 12 2 26 1 38
c-3 12 -9 21 -18 26c-6 5 -15 7 -28 7h-20l5 35h2c12 1 26 3 32 6c5 3 9 6 12 10c7 9 17 52 19 71c3 16 -1 29 -11 40c-10 10 -26 16 -44 16h-50l6 35h125c29 0 68 -4 94 -29c18 -18 28 -46 22 -77c-2 -14 -5 -32 -15 -50c-5 -12 -13 -25 -25 -35c7 -7 12 -15 15 -22z" />
    <glyph glyph-name="bracketleft" unicode="[" horiz-adv-x="348" 
d="M288 -225h-233l-29 35l145 825l42 37h232l-7 -42h-122l-144 -815h123z" />
    <glyph glyph-name="backslash" unicode="\" horiz-adv-x="589" 
d="M150 671h170l249 -671h-166z" />
    <glyph glyph-name="bracketright" unicode="]" horiz-adv-x="348" 
d="M60 672h233l29 -35l-145 -825l-42 -37h-232l7 42h122l144 815h-123z" />
    <glyph glyph-name="asciicircum" unicode="^" horiz-adv-x="506" 
d="M399 677l141 -199l-55 -36l-124 173l-186 -173l-41 36l210 199h55z" />
    <glyph glyph-name="underscore" unicode="_" horiz-adv-x="425" 
d="M400 -140l-11 -60h-424l11 60h424z" />
    <glyph glyph-name="grave" unicode="`" horiz-adv-x="279" 
d="M276 507l-105 126l51 43l103 -127z" />
    <glyph glyph-name="thorn" unicode="&#xfe;" horiz-adv-x="548" 
d="M355 4h-108l-41 -225h-156l96 551l54 330h156l-34 -209h81c49 0 92 -17 120 -48s41 -76 32 -127c-6 -32 -19 -124 -24 -149c-11 -64 -60 -123 -176 -123zM254 45h23c55 0 94 47 100 82c22 111 30 184 31 189c5 28 -5 50 -19 67c-15 17 -39 26 -68 26h-5l-14 -79z" />
    <glyph glyph-name="yen" unicode="&#xa5;" 
d="M488 176l-8 -45h-108l-23 -131h-148l23 131h-109l8 45h109l15 84h-109l6 40h133c-97 4 -161 80 -142 183l33 189h157l-40 -229c-10 -56 -9 -103 47 -104h8c56 1 71 48 81 104l40 229h156l-33 -189c-24 -135 -115 -183 -216 -187h141l-6 -36h-108l-15 -84h108z" />
    <glyph glyph-name="A" unicode="A" 
d="M141 511c18 101 110 161 212 161h265l-116 -672h-156l44 266h-137l-46 -266h-156zM398 311l57 316h-36c-56 0 -109 -45 -119 -101l-39 -215h137z" />
    <glyph glyph-name="Zcaron" unicode="&#x17d;" horiz-adv-x="600" 
d="M475 630h-332l7 42h497c-1 -35 -1 -42 -1 -42l-443 -588h331l-7 -42h-496c0 8 1 36 1 42zM471 750h-78l-71 116l54 37l64 -105l101 109l42 -36z" />
    <glyph glyph-name="Thorn" unicode="&#xde;" horiz-adv-x="484" 
d="M309 138h-108l-25 -138h-156l113 641h157l-21 -115h80c49 0 92 -17 120 -48s41 -76 32 -127c-6 -32 -11 -65 -16 -90c-11 -64 -60 -123 -176 -123zM208 179h23c55 0 94 47 100 82c22 111 22 125 23 130c5 28 -5 50 -19 67c-15 17 -39 26 -68 26h-5z" />
    <glyph glyph-name="quotesinglbase" unicode="&#x201a;" horiz-adv-x="182" 
d="M88 0h-46v102h95v-81c0 -43 -5 -75 -15 -94c-14 -26 -36 -46 -66 -59l-21 34c35 15 52 43 53 98z" />
    <glyph glyph-name="florin" unicode="&#x192;" horiz-adv-x="556" 
d="M27 -149l18 68c32 -7 56 -10 72 -10c35 0 50 11 61 66l85 455h-96l11 61h96l12 57c7 35 14 60 21 73c20 36 55 58 115 58c25 0 60 -6 103 -17l-17 -67c-33 7 -58 11 -74 11c-36 0 -50 -9 -62 -70l-10 -45h98l-11 -61h-99l-91 -477c-16 -85 -52 -113 -124 -113
c-30 0 -66 4 -108 11z" />
    <glyph glyph-name="quotedblbase" unicode="&#x201e;" horiz-adv-x="333" 
d="M88 0h-46v102h95v-81c0 -43 -5 -75 -15 -94c-14 -26 -36 -46 -66 -59l-21 34c35 15 52 43 53 98zM240 0h-46v102h94v-81c0 -43 -5 -75 -15 -94c-14 -26 -36 -46 -65 -59l-22 34c35 15 51 43 54 98z" />
    <glyph glyph-name="ellipsis" unicode="&#x2026;" horiz-adv-x="1001" 
d="M217 0h-100v100h100v-100zM550 0h-100v100h100v-100zM884 0h-101v100h101v-100z" />
    <glyph glyph-name="dagger" unicode="&#x2020;" horiz-adv-x="556" 
d="M316 -148h-84v563h-184v75h184v188h84v-188h187v-75h-187v-563z" />
    <glyph glyph-name="daggerdbl" unicode="&#x2021;" horiz-adv-x="556" 
d="M320 -139h-88v151h-196v78h196v354h-196v79h196v154h88v-154h197v-79h-197v-354h197v-78h-197v-151z" />
    <glyph glyph-name="circumflex" unicode="&#x2c6;" horiz-adv-x="333" 
d="M222 541l-54 83l-55 -83h-101l106 137h93l110 -137h-99z" />
    <glyph glyph-name="perthousand" unicode="&#x2030;" horiz-adv-x="1000" 
d="M221 0h-65l294 706h65zM18 527c0 121 56 173 140 173c83 0 140 -54 140 -171c0 -120 -44 -181 -139 -181c-84 0 -141 55 -141 179zM90 523c0 -93 28 -118 71 -118c19 0 33 7 44 21c14 18 21 51 21 98s-7 80 -21 99c-11 14 -27 21 -46 21c-21 0 -36 -7 -47 -21
c-15 -19 -22 -53 -22 -100zM373 178c0 121 55 174 140 174c83 0 141 -53 141 -172c0 -120 -45 -180 -140 -180c-84 0 -141 53 -141 178zM445 174c0 -92 27 -118 71 -118c19 0 34 7 45 21c14 19 21 51 21 98s-7 79 -22 98c-11 15 -27 22 -46 22c-21 0 -36 -7 -47 -21
c-15 -19 -22 -53 -22 -100zM703 178c0 121 55 174 139 174s141 -53 141 -172c0 -120 -44 -180 -140 -180c-83 0 -140 53 -140 178zM775 174c0 -92 27 -118 70 -118c19 0 34 7 45 21c14 19 21 51 21 98s-7 79 -22 98c-11 15 -26 22 -46 22s-35 -7 -46 -21
c-15 -19 -22 -53 -22 -100z" />
    <glyph glyph-name="guilsinglleft" unicode="&#x2039;" horiz-adv-x="333" 
d="M271 480l-129 -223l129 -222h-72l-154 222l154 223h72z" />
    <glyph glyph-name="OE" unicode="&#x152;" horiz-adv-x="1000" 
d="M634 79h331v-80h-420v99c-43 -73 -108 -110 -194 -110c-97 0 -171 36 -222 107c-44 63 -66 145 -66 245c0 99 23 182 69 249c47 67 120 101 219 101c86 0 151 -34 194 -103v92h405v-81h-316v-207h291v-80h-291v-232zM351 617c-33 0 -66 -10 -97 -30
c-61 -40 -93 -119 -93 -254c0 -93 18 -162 55 -207c37 -44 82 -66 135 -66c52 0 96 22 133 66s56 117 56 219c0 94 -19 163 -56 206c-37 44 -82 66 -133 66z" />
    <glyph glyph-name="bullet" unicode="&#x2022;" horiz-adv-x="351" 
d="M53 351c0 34 12 63 36 87c25 24 54 36 88 36s63 -12 87 -36c25 -24 37 -53 37 -87c0 -35 -12 -64 -37 -88c-24 -24 -53 -36 -87 -36s-63 12 -88 36c-24 24 -36 53 -36 88z" />
    <glyph glyph-name="endash" unicode="&#x2013;" horiz-adv-x="552" 
d="M554 224h-556v70h556v-70z" />
    <glyph glyph-name="emdash" unicode="&#x2014;" horiz-adv-x="1000" 
d="M1000 224h-1000v70h1000v-70z" />
    <glyph glyph-name="tilde" unicode="&#x2dc;" horiz-adv-x="333" 
d="M68 565h-65c0 34 9 61 28 81c19 21 43 31 72 31c20 0 47 -9 82 -27c19 -9 35 -14 46 -14c21 0 31 9 36 42h63c-1 -75 -41 -111 -96 -111c-20 0 -47 9 -81 27c-21 12 -37 18 -48 18s-19 -4 -26 -12s-11 -20 -11 -35z" />
    <glyph glyph-name="trademark" unicode="&#x2122;" horiz-adv-x="999" 
d="M297 318h-60v307h-117v53h294v-53h-117v-307zM510 318h-56v360h89l91 -288l88 288h87v-360h-55v302l-93 -302h-55l-96 307v-307z" />
    <glyph glyph-name="guilsinglright" unicode="&#x203a;" horiz-adv-x="333" 
d="M45 35l129 224l-129 221h73l148 -218l-148 -227h-73z" />
    <glyph glyph-name="oe" unicode="&#x153;" horiz-adv-x="944" 
d="M478 95c-51 -64 -114 -97 -194 -97c-73 0 -132 23 -177 70s-67 112 -67 195c0 55 9 104 28 147c39 88 122 130 217 130c91 0 160 -42 193 -99c41 61 109 99 189 99c72 0 130 -25 174 -74c45 -49 67 -122 66 -220h-383c1 -54 16 -97 45 -128s66 -47 109 -47
c65 0 113 36 134 108l88 -13c-28 -107 -107 -168 -223 -168c-88 0 -159 37 -199 97zM130 270c0 -61 12 -107 35 -138c30 -41 69 -61 117 -61c42 0 78 17 108 51c30 35 45 84 45 149c0 129 -68 197 -153 197c-87 4 -155 -84 -152 -198zM527 318h287c-8 99 -65 150 -141 150
c-79 0 -138 -57 -146 -150z" />
    <glyph glyph-name="cent" unicode="&#xa2;" horiz-adv-x="556" 
d="M363 447l-108 -375c11 -3 21 -4 30 -4c67 0 121 48 132 132l88 -10c-21 -120 -110 -194 -219 -194c-16 0 -33 2 -50 7l-48 -168l-54 16l46 169c-75 36 -128 122 -128 247c0 58 9 108 28 149c39 83 123 125 202 125c12 0 28 -1 49 -4l43 150l54 -16l-43 -150
c65 -28 96 -74 111 -145l-86 -13c-9 37 -24 65 -47 84zM203 96l109 373c-11 1 -19 1 -25 1c-82 3 -149 -73 -144 -199c0 -85 21 -146 60 -175z" />
    <glyph glyph-name="currency" unicode="&#xa4;" horiz-adv-x="644" 
d="M142 475l-72 69l60 61l71 -71c36 25 76 37 121 37s86 -12 122 -37l71 71l59 -61l-71 -69c25 -38 37 -78 37 -121s-12 -83 -37 -121l71 -69l-59 -62l-71 72c-36 -25 -77 -37 -122 -37s-85 12 -121 37l-71 -72l-60 62l72 69c-24 38 -36 78 -36 121s12 83 36 121zM189 354
c0 -37 13 -68 39 -94s57 -39 94 -39s68 13 93 39c26 26 39 57 39 94s-13 68 -39 94c-25 26 -56 39 -93 39s-68 -13 -94 -39s-39 -57 -39 -94z" />
    <glyph glyph-name="brokenbar" unicode="&#xa6;" horiz-adv-x="260" 
d="M92 678h76v-365h-76v365zM92 155h76v-365h-76v365z" />
    <glyph glyph-name="section" unicode="&#xa7;" horiz-adv-x="556" 
d="M91 -4l79 12c17 -77 51 -104 112 -104c60 0 95 36 95 77c0 15 -5 28 -16 41c-18 21 -68 57 -149 107c-43 27 -73 47 -90 62c-35 31 -58 73 -58 117c0 57 37 106 98 125c-41 40 -57 70 -57 109c0 37 15 69 44 96c29 28 68 42 117 42c109 0 170 -53 183 -152l-82 -9
c-12 72 -42 96 -95 96c-52 0 -89 -35 -89 -70c0 -15 5 -29 16 -42c16 -19 60 -51 133 -96c47 -28 78 -49 94 -62c41 -35 60 -71 60 -115c0 -33 -10 -62 -31 -85c-13 -13 -36 -27 -69 -40c47 -36 70 -76 70 -123c3 -80 -77 -148 -174 -144c-111 0 -178 58 -191 158zM347 133
c44 23 64 54 64 82c0 17 -7 34 -22 53s-48 43 -99 74c-40 25 -70 45 -90 61c-47 -28 -65 -53 -65 -86c0 -18 7 -35 21 -52c13 -17 43 -39 90 -67c39 -23 73 -44 101 -65z" />
    <glyph glyph-name="dieresis" unicode="&#xa8;" horiz-adv-x="334" 
d="M122 579h-92v100h92v-100zM304 579h-92v100h92v-100z" />
    <glyph glyph-name="copyright" unicode="&#xa9;" horiz-adv-x="738" 
d="M370 678c53 0 105 -14 156 -41s91 -67 119 -118c29 -51 43 -104 43 -160c0 -55 -14 -107 -42 -158s-67 -90 -118 -118c-50 -28 -103 -42 -158 -42s-108 14 -159 42c-50 28 -89 67 -118 118c-28 51 -42 103 -42 158c0 56 14 109 43 160s68 91 119 118s103 41 157 41z
M370 625c-45 0 -89 -12 -131 -35s-75 -55 -99 -98s-36 -87 -36 -133c0 -45 12 -89 35 -132c47 -84 140 -133 231 -133c46 0 90 12 132 35c84 47 133 139 133 230c0 46 -12 90 -36 133c-23 43 -56 75 -99 98s-86 35 -130 35zM472 308l52 -16c-16 -69 -76 -115 -153 -115
c-100 0 -168 68 -168 181c0 114 68 180 171 180c75 0 125 -39 144 -99l-50 -13c-17 43 -52 65 -96 65c-65 0 -111 -47 -111 -134s43 -130 106 -130c51 0 93 30 105 81z" />
    <glyph glyph-name="ordfeminine" unicode="&#xaa;" horiz-adv-x="374" 
d="M268 367c-40 -35 -82 -53 -125 -53c-75 0 -120 44 -120 107c0 46 23 79 71 94c11 4 27 8 48 11l72 10l47 10c-1 23 -3 38 -7 46c-8 16 -31 29 -70 29c-51 0 -76 -22 -81 -61l-67 16c8 59 57 102 149 102c53 0 91 -10 113 -30s33 -49 33 -88v-147c0 -44 7 -74 20 -90h-73
c-6 13 -9 28 -10 44zM260 489c-17 -5 -48 -11 -93 -18c-29 -4 -49 -10 -58 -19c-9 -8 -13 -18 -13 -31c0 -27 23 -48 63 -48c48 0 86 29 97 66c3 7 4 23 4 50z" />
    <glyph glyph-name="guillemotleft" unicode="&#xab;" 
d="M293 480l-127 -222l126 -223h-71l-156 223l156 222h72zM484 480l-129 -222l129 -223h-74l-153 223l153 222h74z" />
    <glyph glyph-name="logicalnot" unicode="&#xac;" horiz-adv-x="584" 
d="M528 503v-296h-83v214h-389v82h472z" />
    <glyph glyph-name="uni00AD" unicode="&#xad;" horiz-adv-x="352" 
d="M304 224h-256v70h256v-70z" />
    <glyph glyph-name="registered" unicode="&#xae;" horiz-adv-x="737" 
d="M370 680c54 0 107 -14 158 -42c51 -27 91 -67 119 -118c29 -51 43 -105 43 -161c0 -55 -14 -109 -42 -160s-68 -90 -119 -118s-104 -42 -159 -42c-56 0 -109 14 -160 42s-90 67 -119 118c-28 51 -42 105 -42 160c0 56 14 110 43 161s69 91 120 118c51 28 104 42 158 42z
M370 627c-45 0 -89 -12 -132 -35c-42 -23 -75 -56 -100 -99c-24 -43 -36 -87 -36 -134c0 -46 12 -90 35 -133c48 -84 141 -134 233 -134c46 0 90 12 132 35c85 48 135 140 135 232c0 47 -12 91 -36 134c-23 43 -57 76 -100 99s-86 35 -131 35zM285 182h-56v345h119
c41 0 70 -3 88 -10c36 -12 59 -47 59 -83c0 -51 -39 -93 -98 -98c12 -5 22 -11 29 -18c13 -13 30 -36 51 -69l42 -67h-68l-31 54c-23 43 -43 70 -58 81c-10 8 -25 12 -44 12h-33v-147zM285 481v-105h67c65 0 84 21 84 53c0 10 -3 19 -9 27c-11 17 -24 25 -79 25h-63z" />
    <glyph glyph-name="degree" unicode="&#xb0;" horiz-adv-x="400" 
d="M62 543c0 37 13 69 40 95c27 27 59 40 96 40s69 -13 95 -40c27 -26 40 -58 40 -95s-13 -69 -40 -96c-26 -27 -58 -40 -95 -40s-69 13 -96 39c-27 27 -40 59 -40 97zM116 543c0 -45 37 -83 82 -83s82 38 82 83s-37 82 -82 82s-82 -37 -82 -82z" />
    <glyph glyph-name="plusminus" unicode="&#xb1;" 
d="M316 127h-83v197h-195v81h195v195h83v-195h195v-81h-195v-197zM511 82v-82h-473v82h473z" />
    <glyph glyph-name="twosuperior" unicode="&#xb2;" horiz-adv-x="333" 
d="M316 308h-304c2 19 10 37 23 56c21 28 54 59 101 93s75 56 84 65c12 13 18 27 18 41c0 32 -23 54 -68 54c-43 0 -61 -12 -74 -56l-74 8c20 72 62 106 150 106c99 0 142 -44 142 -100c0 -27 -9 -53 -28 -77c-15 -18 -48 -46 -100 -84c-27 -19 -47 -35 -58 -47h188v-59z
" />
    <glyph glyph-name="threesuperior" unicode="&#xb3;" horiz-adv-x="333" 
d="M16 406l71 7c7 -19 15 -33 26 -40c14 -10 31 -15 50 -15c45 0 76 29 76 65c0 33 -21 54 -77 54c-4 0 -9 0 -16 -1c-5 -1 -8 -1 -11 -1l11 54c52 0 76 22 76 50c0 24 -21 43 -58 43s-55 -12 -70 -49l-70 11c27 69 61 93 140 93c93 0 134 -40 134 -92
c0 -36 -23 -66 -67 -78c57 -15 84 -49 84 -93c0 -60 -53 -113 -148 -113c-91 0 -138 37 -151 105z" />
    <glyph glyph-name="acute" unicode="&#xb4;" horiz-adv-x="333" 
d="M181 542h-73l65 137h116z" />
    <glyph glyph-name="mu" unicode="&#xb5;" horiz-adv-x="575" 
d="M411 519h86v-519h-79v62c-17 -27 -33 -45 -50 -54c-23 -13 -49 -20 -79 -20c-27 0 -51 5 -72 16c-16 8 -33 24 -52 48v-251h-87v718h87v-220c0 -80 4 -132 12 -156c17 -47 59 -76 108 -76c26 0 49 7 69 21c21 15 35 33 44 56s13 74 13 153v222z" />
    <glyph glyph-name="paragraph" unicode="&#xb6;" horiz-adv-x="537" 
d="M277 -162h-73v470c-113 4 -182 77 -182 182c0 115 73 189 212 189h285v-78h-65v-763h-76v763h-101v-763z" />
    <glyph glyph-name="periodcentered" unicode="&#xb7;" horiz-adv-x="340" 
d="M220 300h-100v100h100v-100z" />
    <glyph glyph-name="cedilla" unicode="&#xb8;" horiz-adv-x="333" 
d="M105 -75l26 86h65l-16 -52c56 -7 84 -37 84 -72c0 -48 -48 -93 -141 -93c-27 0 -50 2 -71 6l6 57c21 -1 36 -2 46 -2c30 0 51 4 64 13c9 7 14 15 14 24c0 18 -8 31 -77 33z" />
    <glyph glyph-name="onesuperior" unicode="&#xb9;" horiz-adv-x="332" 
d="M232 310h-70v270c-33 -26 -70 -44 -110 -55v60c41 13 97 52 128 92h52v-367z" />
    <glyph glyph-name="ordmasculine" unicode="&#xba;" horiz-adv-x="364" 
d="M182 678c95 0 160 -69 160 -184c0 -113 -67 -183 -159 -183c-95 0 -161 68 -161 181c0 117 65 186 160 186zM182 613c-52 0 -88 -35 -88 -119c0 -81 37 -118 88 -118c52 0 88 36 88 121c0 79 -36 116 -88 116z" />
    <glyph glyph-name="guillemotright" unicode="&#xbb;" horiz-adv-x="555" 
d="M259 35l127 223l-127 222h72l156 -222l-156 -223h-72zM68 35l129 223l-129 222h74l153 -222l-153 -223h-74z" />
    <glyph glyph-name="scaron" unicode="&#x161;" horiz-adv-x="485" 
d="M300 249c98 -1 174 13 161 -100l-5 -29c-14 -91 -72 -120 -173 -120h-233l7 41h132c55 0 94 -5 103 40l13 77c4 28 -7 48 -73 49c-97 1 -143 15 -126 114l5 25c23 97 100 106 201 106h182l-7 -42h-125c-91 1 -94 -55 -94 -55l-10 -59c-2 -25 2 -41 42 -47zM373 509h-78
l-70 116l53 37l65 -105l101 109l42 -36z" />
    <glyph glyph-name="uni00A0" unicode="&#xa0;" horiz-adv-x="0" 
 />
    <glyph glyph-name="macron" horiz-adv-x="0" 
 />
  </font>
</defs>
</svg>
